#TITLE:Let's Go To The Show;
#SUBTITLE:K2 Auto Messe;
#ARTIST:Dave Rodgers;
#TITLETRANSLIT:;
#SUBTITLETRANSLIT:;
#ARTISTTRANSLIT:;
#GENRE:;
#CREDIT:;
#BANNER:banner.png;
#BACKGROUND:;
#LYRICSPATH:;
#CDTITLE:cdtitle.png;
#MUSIC:letsgo.mp3;
#OFFSET:0.303;
#SAMPLESTART:58.540;
#SAMPLELENGTH:12.000;
#SELECTABLE:YES;
#BPMS:0.000=146.600;
#STOPS:;
#DELAYS:;
#TIMESIGNATURES:0.000=4=4
;
#BGCHANGES:1.500=flipped.avi=1.000=0=0=1=====,
99999=-nosongbg-=1.000=0=0=0 // don't automatically add -songbackground-
;
#KEYSOUNDS:;
#ATTACKS:;
// cache tags:
#FIRSTBEAT:8.500;
#LASTBEAT:325.000;
#SONGFILENAME:/Songs/ParaPara/Lets Go To The Show/letsgo.sm;
#HASMUSIC:1;
#HASBANNER:1;
#MUSICLENGTH:133.604;
// end cache tags

//---------------para-single - ----------------
#NOTES:
     para-single:
     :
     Beginner:
     6:
     0.293,0.547,0.254,0.150,0.150,220.000,34.000,20.000,0.000,0.000,0.000,0.000,-1.000,-1.000,0.293,0.547,0.254,0.150,0.150,220.000,34.000,20.000,0.000,0.000,0.000,0.000,-1.000,-1.000:
00000
00000
00000
00000
,
00000
00000
00000
00000
,
00000
00100
00000
00100
00000
00100
00000
00100
,
00000
00000
00000
00000
,
10001
10001
00000
00000
,
00000
00000
00000
00000
,
00000
00100
00000
00100
00000
00100
00000
00100
,
00000
00000
00000
00000
,
10001
10001
00000
00000
,
01000
10100
00010
00001
00000
00000
00000
00000
,
00010
00010
00010
00010
,
00010
00101
01000
10000
00000
00000
00000
00000
,
01000
01000
01000
01000
,
01000
10100
00010
00001
00000
00000
00000
00000
,
00010
00010
00010
00010
,
00010
00101
01000
10000
00000
00000
00000
00000
,
01000
01000
01000
01000
,
01000
00100
00010
00001
00000
00000
00000
00000
00010
00100
01000
10000
00000
00000
00000
00000
,
00100
00010
00001
00000
00100
01000
10000
00000
01000
00100
00010
00001
00000
00000
00000
00000
,
00010
00100
01000
10000
00000
00000
00000
00000
01000
00100
00010
00001
00000
00000
00000
00000
,
00100
01000
10000
00000
00100
00010
00001
00000
00010
00100
01000
10000
00000
00000
00000
00000
,
00010
00000
00010
00000
,
01000
00000
01000
00000
,
01000
00100
00010
00001
00000
00000
00000
00000
00010
00100
01000
10000
00000
00000
00000
00000
,
01010
00000
00000
00000
,
00000
00000
00001
00000
,
20000
00000
00000
30000
,
00000
00000
00000
00000
,
00000
00000
00000
00000
,
00021
00001
00002
00033
,
00000
00101
00000
00000
,
00000
00101
00000
00000
,
00002
10003
00000
10001
,
00000
00000
00001
00000
,
20000
00000
00000
30000
,
00000
00000
00000
00000
,
00000
00000
00000
00000
,
00021
00001
00002
00033
,
00000
00101
00000
00000
,
00000
00101
00000
00000
,
00200
00000
00000
00300
,
02020
00000
00000
03030
,
00000
00000
00000
00000
,
00000
00000
00000
00000
,
10001
10001
00000
00000
,
00000
00000
00000
00000
,
00000
00100
00000
00100
00000
00100
00000
00100
,
00000
00000
00000
00000
,
10001
10001
00000
00000
,
01000
10100
00010
00001
00000
00000
00000
00000
,
00010
00010
00010
00010
,
00010
00101
01000
10000
00000
00000
00000
00000
,
01000
01000
01000
01000
,
01000
10100
00010
00001
00000
00000
00000
00000
,
00010
00010
00010
00010
,
00010
00101
01000
10000
00000
00000
00000
00000
,
01000
01000
01000
01000
,
01000
00100
00010
00001
00000
00000
00000
00000
00010
00100
01000
10000
00000
00000
00000
00000
,
00100
00010
00001
00000
00100
01000
10000
00000
01000
00100
00010
00001
00000
00000
00000
00000
,
00010
00100
01000
10000
00000
00000
00000
00000
01000
00100
00010
00001
00000
00000
00000
00000
,
00100
01000
10000
00000
00100
00010
00001
00000
00010
00100
01000
10000
00000
00000
00000
00000
,
00010
00000
00010
00000
,
01000
00000
01000
00000
,
01000
00100
00010
00001
00000
00000
00000
00000
00010
00100
01000
10000
00000
00000
00000
00000
,
01010
00000
00000
00000
,
00000
00000
00001
00000
,
20000
00000
00000
30000
,
00000
00000
00000
00000
,
00000
00000
00000
00000
,
00021
00001
00002
00033
,
00000
00101
00000
00000
,
00000
00101
00000
00000
,
00002
10003
00000
10001
,
00000
00000
00001
00000
,
20000
00000
00000
30000
,
00000
00000
00000
00000
,
00000
00000
00000
00000
,
00021
00001
00002
00033
,
00000
00101
00000
00000
,
00000
00101
00000
00000
,
00200
00000
00000
00300
,
02020
03030
00000
00000
;
